1. Silahkan Login atau Register, untuk melihat konten-konten menarik lainnya.
  2. Eh, eh.. IDWS punya kebijakan baru dan Moderator in Trainee baru loh!. Intip di sini kuy!
  3. Hai IDWS Mania, membership gatotkaca telah hadir kembali lho, kalau mau info lebih lanjut klik di sini
    Dismiss Notice
  4. Indowebster membuka kesempatan bagi kamu-kamu yang berminat untuk melamar menjadi moderator Zona Movies and TV Series. Open Recruitment Moderator Zona MTV (SF Movies, TV Shows, Profile, Fansubs & Encoders, Movie Maker)
    Dismiss Notice
  5. Tertantang untuk menjadi bagian dari staff forum? Indowebster Corner membuka kesempatan bagi kamu-kamu yang berminat untuk melamar menjadi moderator. Open Recruitment Moderator Indowebster Corner
    Dismiss Notice
  6. Mau bergabung dan mengembangkan forum Female Insight Indowebster? Daftar diri kamu menjadi moderator Female Insight! Informasi lebih lengkap, buka link ini
    Dismiss Notice

Change Log

Discussion in 'INFORMASI UTAMA' started by dono, Jun 22, 2007.

Thread Status:
Not open for further replies.
  1. Offline

    dono Tukang Sapu Administrator

    Joined:
    Apr 16, 2007
    Messages:
    1,585
    Trophy Points:
    221
    Ratings:
    +11,273 / -8
    Berikut perubahan-perubahan yg terjadi pada server:

    23 Juni 2007:
    - Update FFMPEG Server Converter Configuration
    Code:
    FFmpeg version SVN-r9221, Copyright (c) 2000-2007 Fabrice Bellard, et al.
      configuration: --enable-libmp3lame --enable-libogg --enable-libvorbis --disable-mmx --enable-libfaad --enable-gpl --enable-libamr-nb --enable-libamr-wb --enable-libfaadbin --enable-memalign-hack --enable-xvid --enable-libfaac --enable-x264 --enable-pp --enable-shared --enable-liba52 --enable-liba52bin --enable-pthreads --disable-ffserver --disable-ffplay
      libavutil version: 49.4.0
      libavcodec version: 51.40.4
      libavformat version: 51.12.1
    - Update Layout atau Templates 30% using Ajax pada frontend web
    - Allow download FLV dan File Original extension file videos jika login
    - AC3 Supported and need more testing for incomplete encoding thru any exthension Videos Standard
    Code:
    Input #0, avi, from 'adadeh.avi':
      Duration: 01:33:35.7, start: 0.000000, bitrate: 1045 kb/s
      Stream #0.0: Video: mpeg4, yuv420p, 620x256, 23.98 fps(r)
      Stream #0.1: Audio: ac3, 48000 Hz, stereo, 192 kb/s
    Output #0, flv, to 'adadeh.avi.flv':
      Stream #0.0: Video: flv, yuv420p, 480x360, q=2-31, 700 kb/s, 23.98 fps(c)
      Stream #0.1: Audio: mp3, 44100 Hz, stereo, 64 kb/s
    Stream mapping:
      Stream #0.0 -> #0.0
      Stream #0.1 -> #0.1
    No accelerated IMDCT transform found
    Press [q] to stop encoding
    

    22 Juni 2007:
    Launch Beta testing 2 (marked as stable version) dan penggunaan random server saat upload.
    Dengan future:
    - FTP Download
    - 2 Server untuk Upload via Perl coding
    - Bandwidth full support oleh maxindo.net hingga 70 MB/s (DL/UL)
    - Embed code untuk Web
    - Upload max file limit hingga 1000 MB
    - Extensi support
    STREAMING Audio/Video dalam extensi flv, mp3, mpeg, mpg, avi, mov, wmv, asf, mp4, m4a, 3gp, 3g2, mj2 tapi memakai dibawah 2 channel support frame. Jenis Ac3 belum disupport yg punya frame lebih dari 2.
    IMAGES jpeg, gif, png, jpg.
    SOURCE compress rar, zip, 7z, tar.gz, exe.

    01 Juni 2007:
    Perbaikan bandwidth dan networking

    25 Mei 2007:
    - Perubahan logo dan templates juga video players

    20 Mei 2007:
    - Server splitting menjadi 3 Server: Utama, Upload, Convert dan Download

    05 Mei 2007:
    - Server splitting menjadi 2 Server: Utama, Upload, Convert dan Download

    20 April 2007:
    - Beta testing
     
Thread Status:
Not open for further replies.

Share This Page

About Forum IDWS

IDWS, dari kami yang terbaik-untuk kamu-kamu (the best from us to you) yang lebih dikenal dengan IDWS adalah sebuah forum komunitas lokal yang berdiri sejak 15 April 2007. Di bangun sebagai sarana mediasi dengan rekan-rekan pengguna IDWS dan memberikan terbaik untuk para penduduk internet Indonesia menyajikan berbagai macam topik diskusi.


Pakai adblock ya, kak? Bantu IDWS beli segelas kopi dengan cara disable adblock kamu di IDWS. Atau kamu bisa juga support IDWS dengan cara upgrade ID kamu ke Gatotkaca. Makasih yak udah berkenan membaca. Love you, IDWS Mania. Hihi ^^.